Deadpool 2 2018 Super Duper Cut UNRATED 1080p WEB-DL DD 5 1 x264 [MW]

Download via magnet link
Added August 8 2018 in Movies > Action
Verified
Size : 2.47 GB
Seeds : 21 , Peers : 66 updated 1 week ago (new update strongly recommended) Refresh Leechers
Hash code : 4266f5bd3963fdcb35c94c7eec5169ee6d2b66a2


SCREENSHOT





General

Format : Matroska

Format version : Version 4 / Version 2

File size : 2.47 GiB

Duration : 2 h 14 min

Overall bit rate : 2 639 kb/s



Video

ID : 1

Format : AVC

Format/Info : Advanced Video Codec

Format profile : [email protected]

Format settings : CABAC / 4 Ref Frames

Format settings, CABAC : Yes

Format settings, RefFrames : 4 frames

Codec ID : V_MPEG4/ISO/AVC

Duration : 2 h 14 min

Bit rate : 2 400 kb/s

Width : 1 920 pixels

Height : 804 pixels

Display aspect ratio : 2.40:1

Frame rate mode : Constant

Frame rate : 23.976 (24000/1001) FPS

Color space : YUV

Chroma subsampling : 4:2:0

Bit depth : 8 bits

Scan type : Progressive

Bits/(Pixel*Frame) : 0.065

Stream size : 2.23 GiB (90%)

Writing library : x264 core 155 r2901 7d0ff22

Default : Yes

Forced : No



Audio

ID : 3

Format : AC-3

Format/Info : Audio Coding 3

Codec ID : A_AC3

Duration : 2 h 14 min

Bit rate mode : Constant

Bit rate : 256 kb/s

Channel(s) : 6 channels

Channel positions : Front: L C R, Side: L R, LFE

Sampling rate : 48.0 kHz

Frame rate : 31.250 FPS (1536 SPF)

Bit depth : 16 bits

Compression mode : Lossy

Stream size : 245 MiB (10%)

Language : English

Service kind : Complete Main

Default : Yes

Forced : No



Text

ID : 2

Format : UTF-8

Codec ID : S_TEXT/UTF8

Codec ID/Info : UTF-8 Plain Text

Duration : 2 h 13 min

Bit rate : 69 b/s

Count of elements : 2427

Stream size : 67.5 KiB (0%)

Language : English

Default : Yes

Forced : No





http://pichub.site/image/OWok6

http://pichub.site/image/OWpxt

http://pichub.site/image/OW2T4

http://pichub.site/image/OWlDp

http://pichub.site/image/OW6my

http://pichub.site/image/OWPnb

Internal Files
Deadpool 2 2018 Super Duper Cut UNRATED 1080p WEB-DL DD 5.1 x264 [MW].mkv   2.47 GB

1. udp://9.rarbg.com:2710/announce

2. udp://tracker.opentrackr.org:1337/announce

3. udp://tracker.pirateparty.gr:6969/announce

4. udp://tracker.leechers-paradise.org:6969/announce

5. udp://tracker.coppersurfer.tk:6969/announce

6. udp://tracker.zer0day.to:1337/announce

TOPlist