Rangreza (2018) Netflix 720p Urdu H264 AAC - LatestHDMovies Exclusive mkv

Download via magnet link
Added August 7 2018 in Movies > Drama
Verified
Size : 1.18 GB
Seeds : 241 , Peers : 445 updated 1 week ago (new update strongly recommended) Refresh Leechers
Hash code : a4da38a44dd532df6e46dedecc9bea5677e766c3
SCREENSHOT







DIRECT DOWNLOAD & WATCH ONLINE!

VISIT = http://latesthdmovies.org/rangreza-2018-netflix-720p-urdu-h264-aac-latesthmovies-exclusive/









General

Unique ID : 276271808762177155767972958730851142712 (0xCFD803D25AD69E41E2BF6DA6BDFB4C38)

Complete name : C:UsersSHAHIDDownloadsVideoRangreza (2018) Netflix 720p Urdu H264 AAC - LatestHDMovies Exclusive.mkv

Format : Matroska

Format version : Version 4 / Version 2

File size : 1.18 GiB

Duration : 2 h 6 min

Overall bit rate : 1 339 kb/s

Movie name : http://LatestHDMovies.Org

Encoded date : UTC 2018-08-06 14:10:58

Writing application : mkvmerge v24.0.0 ('Beyond The Pale') 32-bit

Writing library : libebml v1.3.6 + libmatroska v1.4.9

Cover : Yes

Attachments : Cover.jpg



Video

ID : 1

Format : AVC

Format/Info : Advanced Video Codec

Format profile : [email protected]

Format settings : CABAC / 5 Ref Frames

Format settings, CABAC : Yes

Format settings, ReFrames : 5 frames

Codec ID : V_MPEG4/ISO/AVC

Duration : 2 h 6 min

Bit rate : 1 216 kb/s

Width : 1 280 pixels

Height : 720 pixels

Display aspect ratio : 16:9

Frame rate mode : Constant

Frame rate : 24.000 FPS

Color space : YUV

Chroma subsampling : 4:2:0

Bit depth : 8 bits

Scan type : Progressive

Bits/(Pixel*Frame) : 0.055

Stream size : 1.07 GiB (90%)

Title : http://LatestHDMovies.Org

Writing library : x264 core 148 r2643 5c65704

Encoding settings : cabac=1 / ref=5 / deblock=1:0:0 / analyse=0x3:0x113 / me=hex / subme=7 / psy=1 / psy_rd=1.00:0.00 / mixed_ref=1 / me_range=16 / chroma_me=1 / trellis=1 / 8x8dct=1 / cqm=0 / deadzone=21,11 / fast_pskip=1 / chroma_qp_offset=-2 / threads=8 / lookahead_threads=8 / sliced_threads=1 / slices=8 / nr=0 / decimate=1 / interlaced=0 / bluray_compat=0 / constrained_intra=0 / bframes=0 / weightp=2 / keyint=250 / keyint_min=24 / scenecut=40 / intra_refresh=0 / rc=2pass / mbtree=0 / bitrate=1216 / ratetol=1.0 / qcomp=0.60 / qpmin=0 / qpmax=69 / qpstep=4 / cplxblur=20.0 / qblur=0.5 / ip_ratio=1.40 / aq=1:1.00

Language : Urdu

Default : Yes

Forced : No



Audio

ID : 2

Format : AAC

Format/Info : Advanced Audio Codec

Format profile : LC

Codec ID : A_AAC-2

Duration : 2 h 6 min

Bit rate : 128 kb/s

Channel(s) : 2 channels

Channel positions : Front: L R

Sampling rate : 48.0 kHz

Frame rate : 46.875 FPS (1024 SPF)

Compression mode : Lossy

Delay relative to video : -43 ms

Stream size : 116 MiB (10%)

Title : http://LatestHDMovies.Org

Language : Urdu

Default : Yes

Forced : No







SCREENSHOT SCREENSHOT SCREENSHOT SCREENSHOT SCREENSHOT SCREENSHOT SCREENSHOT SCREENSHOT SCREENSHOT SCREENSHOT SCREENSHOT SCREENSHOT
Internal Files
Rangreza (2018) Netflix 720p Urdu H264 AAC - LatestHDMovies Exclusive.mkv   1.18 GB

1. udp://9.rarbg.com:2710/announce

2. udp://tracker.opentrackr.org:1337/announce

3. udp://tracker.pirateparty.gr:6969/announce

4. udp://tracker.leechers-paradise.org:6969/announce

5. udp://tracker.coppersurfer.tk:6969/announce

6. udp://tracker.zer0day.to:1337/announce

No related torrents found!

TOPlist